TV影视论坛|迅雷电影下载|百度云高清资源

 找回密码
 立即注册
查看: 81|回复: 0

神战:权力之眼 Gods.of.Egypt.2016.1080p.BluRay.REMUX.AVC.DTS-HD.MA.7.1-RARBG 3...

[复制链接]

8814

主题

8815

帖子

2万

积分

管理员

Rank: 9Rank: 9Rank: 9

积分
27160
发表于 2018-6-4 16:47:50 | 显示全部楼层 |阅读模式
◎译  名 神战:权力之眼/埃及神战(港)/荷鲁斯之眼:王者争霸(台)/神战·权力之眼/埃及众神/埃及之神/埃及诸神
◎片  名 Gods of Egypt
◎年  代 2016
◎国  家 美国/澳大利亚
◎类  别 动作/奇幻/冒险
◎语  言 英语
◎上映日期 2016-02-26(美国)/2016-03-11(中国大陆)
◎IMDb评分  5.6/10 from 22,576 users
◎IMDb链接  http://www.imdb.com/title/tt2404233/
◎豆瓣评分 6.7/10 from 16,229 users
◎豆瓣链接 https://movie.douban.com/subject/26662345/
◎片  长 127分钟
◎导  演 亚历克斯·普罗亚斯 Alex Proyas
◎主  演 尼古拉·科斯特-瓦尔道 Nikolaj Coster-Waldau
      布伦顿·思韦茨 Brenton Thwaites
      杰拉德·巴特勒 Gerard Butler
      查德维克·博斯曼 Chadwick Boseman
      艾洛蒂·袁 Elodie Yung
      考特尼·伊顿 Courtney Eaton
      卢夫斯·塞维尔 Rufus Sewell
      杰弗里·拉什 Geoffrey Rush
      布莱恩·布朗 Bryan Brown
      瑞切尔·布莱克 Rachael Blake
      艾玛·布斯 Emma Booth
      戈兰·D·克鲁特 Goran D. Kleut
      阿比·丽 Abbey Lee
      布鲁斯·斯宾斯 Bruce Spence
      罗宾·奈文 Robyn Nevin

◎简  介

  故事发生在矗立着宫殿和金字塔的婉转萦回的尼罗河畔。 当时的古埃及充满了魔法、怪兽和神灵。无情的黑暗之神赛特,夺取了原本属于天神荷鲁斯的埃及王权,并让曾经繁荣和平的国家陷入冲突与混乱。人类的存亡与世界的安定岌岌可危。 一位年轻的窃贼贝克被神所眷顾,为拯救世界和自己的真爱踏上了一场惊险的奇幻旅程。为了成功,他必须寻求并得到强大的荷鲁斯神的帮助,与其组成一个看似不太可能的“英雄” 联盟。随着人类生命的危在旦夕,两个英雄站了出来,开启了对抗邪恶的不归路...... 作为荷鲁斯与贝克强有力的敌人,赛特指派心腹为他们的对抗制造重重艰难险阻。如果荷鲁斯神与凡人贝克希望在这场对抗中最终获胜,他们就必须通过一系列对勇气和牺牲的考验。
  • Video
  • ID                                       : 1
  • Format                                   : AVC
  • Format/Info                              : Advanced Video Codec
  • Format profile                           : High@L4.1
  • Format settings, CABAC                   : Yes
  • Format settings, ReFrames                : 4 frames
  • Codec ID                                 : V_MPEG4/ISO/AVC
  • Duration                                 : 2h 7mn
  • Bit rate mode                            : Variable
  • Maximum bit rate                         : 37.0 Mbps
  • Width                                    : 1 920 pixels
  • Height                                   : 1 080 pixels
  • Display aspect ratio                     : 16:9
  • Frame rate mode                          : Constant
  • Frame rate                               : 23.976 (24000/1001) fps
  • Color space                              : YUV
  • Chroma subsampling                       : 4:2:0
  • Bit depth                                : 8 bits
  • Scan type                                : Progressive
  • Title                                    : Gods.of.Egypt.2016.1080p.BluRay.REMUX.AVC.DTS-HD.MA.7.1-RARBG
  • Language                                 : English
  • Default                                  : No
  • Forced                                   : No

  • Audio #1
  • ID                                       : 2
  • Format                                   : DTS
  • Format/Info                              : Digital Theater Systems
  • Format profile                           : X / MA / Core
  • Mode                                     : 16
  • Format settings, Endianness              : Big
  • Codec ID                                 : A_DTS
  • Bit rate mode                            : Variable / Variable / Constant
  • Bit rate                                 : Unknown / Unknown / 1 509 Kbps
  • Channel(s)                               : Object Based / 8 channels / 6 channels
  • Channel positions                        : Object Based / Front: L C R, Side: L R, Back: L R, LFE / Front: L C R, Side: L R, LFE
  • Sampling rate                            :  / 48.0 KHz / 48.0 KHz
  • Frame rate                               : 93.750 fps (512 spf)
  • Bit depth                                :  / 24 bits / 24 bits
  • Compression mode                         :  / Lossless / Lossy
  • Title                                    : Gods.of.Egypt.2016.1080p.BluRay.REMUX.AVC.DTS-HD.MA.7.1-RARBG
  • Language                                 : English
  • Default                                  : Yes
  • Forced                                   : No

  • Audio #2
  • ID                                       : 3
  • Format                                   : DTS
  • Format/Info                              : Digital Theater Systems
  • Mode                                     : 16
  • Format settings, Endianness              : Big
  • Codec ID                                 : A_DTS
  • Duration                                 : 2h 7mn
  • Bit rate mode                            : Constant
  • Bit rate                                 : 1 509 Kbps
  • Channel(s)                               : 6 channels
  • Channel positions                        : Front: L C R, Side: L R, LFE
  • Sampling rate                            : 48.0 KHz
  • Frame rate                               : 93.750 fps (512 spf)
  • Bit depth                                : 24 bits
  • Compression mode                         : Lossy
  • Stream size                              : 1.34 GiB (4%)
  • Title                                    : Gods.of.Egypt.2016.1080p.BluRay.REMUX.AVC.DTS-HD.MA.7.1-RARBG
  • Language                                 : English
  • Default                                  : No
  • Forced                                   : No

  • Audio #3
  • ID                                       : 4
  • Format                                   : DTS
  • Format/Info                              : Digital Theater Systems
  • Mode                                     : 16
  • Format settings, Endianness              : Big
  • Codec ID                                 : A_DTS
  • Duration                                 : 2h 7mn
  • Bit rate mode                            : Constant
  • Bit rate                                 : 755 Kbps
  • Channel(s)                               : 6 channels
  • Channel positions                        : Front: L C R, Side: L R, LFE
  • Sampling rate                            : 48.0 KHz
  • Frame rate                               : 93.750 fps (512 spf)
  • Bit depth                                : 24 bits
  • Compression mode                         : Lossy
  • Stream size                              : 686 MiB (2%)
  • Title                                    : Gods.of.Egypt.2016.1080p.BluRay.REMUX.AVC.DTS-HD.MA.7.1-RARBG
  • Language                                 : Spanish
  • Default                                  : No
  • Forced                                   : No

  • Audio #4
  • ID                                       : 5
  • Format                                   : DTS
  • Format/Info                              : Digital Theater Systems
  • Mode                                     : 16
  • Format settings, Endianness              : Big
  • Codec ID                                 : A_DTS
  • Duration                                 : 2h 7mn
  • Bit rate mode                            : Constant
  • Bit rate                                 : 755 Kbps
  • Channel(s)                               : 2 channels
  • Channel positions                        : Front: L R
  • Sampling rate                            : 48.0 KHz
  • Frame rate                               : 93.750 fps (512 spf)
  • Bit depth                                : 24 bits
  • Compression mode                         : Lossy
  • Stream size                              : 686 MiB (2%)
  • Title                                    : Gods.of.Egypt.2016.1080p.BluRay.REMUX.AVC.DTS-HD.MA.7.1-RARBG
  • Language                                 : English
  • Default                                  : No
  • Forced                                   : No

  • Audio #5
  • ID                                       : 6
  • Format                                   : DTS
  • Format/Info                              : Digital Theater Systems
  • Mode                                     : 16
  • Format settings, Endianness              : Big
  • Codec ID                                 : A_DTS
  • Duration                                 : 2h 7mn
  • Bit rate mode                            : Constant
  • Bit rate                                 : 768 Kbps
  • Channel(s)                               : 2 channels
  • Channel positions                        : Front: L R
  • Sampling rate                            : 48.0 KHz
  • Frame rate                               : 93.750 fps (512 spf)
  • Bit depth                                : 24 bits
  • Compression mode                         : Lossy
  • Stream size                              : 698 MiB (2%)
  • Title                                    : Gods.of.Egypt.2016.1080p.BluRay.REMUX.AVC.DTS-HD.MA.7.1-RARBG
  • Language                                 : English
  • Default                                  : No
  • Forced                                   : No

  • Text #1
  • ID                                       : 7
  • Format                                   : PGS
  • Muxing mode                              : zlib
  • Codec ID                                 : S_HDMV/PGS
  • Codec ID/Info                            : Picture based subtitle format used on BDs/HD-DVDs
  • Title                                    : English-PGS
  • Language                                 : English
  • Default                                  : No
  • Forced                                   : No

  • Text #2
  • ID                                       : 8
  • Format                                   : PGS
  • Muxing mode                              : zlib
  • Codec ID                                 : S_HDMV/PGS
  • Codec ID/Info                            : Picture based subtitle format used on BDs/HD-DVDs
  • Title                                    : English-SDH-PGS
  • Language                                 : English
  • Default                                  : No
  • Forced                                   : No

  • Text #3
  • ID                                       : 9
  • Format                                   : PGS
  • Muxing mode                              : zlib
  • Codec ID                                 : S_HDMV/PGS
  • Codec ID/Info                            : Picture based subtitle format used on BDs/HD-DVDs
  • Title                                    : Spanish-PGS
  • Language                                 : Spanish
  • Default                                  : No
  • Forced                                   : No

  • Menu
  • 00:00:00.000                             : en:Chapter 01
  • 00:07:08.010                             : en:Chapter 02
  • 00:18:07.544                             : en:Chapter 03
  • 00:23:47.259                             : en:Chapter 04
  • 00:30:11.768                             : en:Chapter 05
  • 00:39:16.520                             : en:Chapter 06
  • 00:46:30.621                             : en:Chapter 07
  • 00:54:46.074                             : en:Chapter 08
  • 01:01:14.128                             : en:Chapter 09
  • 01:09:29.039                             : en:Chapter 10
  • 01:18:03.345                             : en:Chapter 11
  • 01:28:18.251                             : en:Chapter 12
  • 01:36:12.057                             : en:Chapter 13
  • 01:39:14.657                             : en:Chapter 14
  • 01:46:58.328                             : en:Chapter 15
  • 01:52:11.015                             : en:Chapter 16


Gods.of.Egypt.2016.1080p.BluRay.REMUX.AVC.DTS-HD.MA.7.1-RARBG.torrent

83.3 KB, 下载次数: 0

回复

使用道具 举报

QQ|本网站所有资源来自网络,如无意中侵犯了您的权益,请发邮件125457186@qq.com,立即清除相关链接|Archiver|手机版|小黑屋|TV影视论坛|迅雷电影下载|美剧|百度云高清资源  |网站地图

GMT+8, 2018-6-23 12:16 , Processed in 0.195531 second(s), 47 queries .

Powered by Discuz! X3.2

© 2001-2013 Comsenz Inc.

快速回复 返回顶部 返回列表